DNS SERVER ÄNDERN, um der staatlichen Zensur zu entgehen. Sollten wir von eurem Provider gesperrt werden, nutzt den TOR BROWSER oder ändert euren DNS SERVER.

Filmwünsche können bei uns im Forum abgegeben werden

Wir Speichern Nicht




 
 
 
Top Releases
Der.wilde.Pazifik.Die.Schoen...
Venom.2018.MULTi.COMPLETE.UH...
OPERATION.Overlord.2018.COMP...
Heavy.Trip.2018.German.1080p...
Utoya.22.Juli.2018.MULTi.COM...
Heavy.Trip.2018.MULTi.COMPLE...
Isle.of.Dogs.2018.MULTi.COMP...
Sauerkrautkoma.2018.GERMAN.C...
OPERATION.OVERLORD.2018.MULT...
Venom.2018.MULTI.COMPLETE.BL...

Cinedubs
Spider-Man.A.New.Universe.20...
Spider-Man.A.New.Universe.20...
Creed.2.Rockys.Legacy.2018.G...
Green.Book.Eine.besondere.Fr...
Creed.2.Rockys.Legacy.2018.G...
Ploetzlich.Familie.2018.GERM...
Maria.Stuart.Koenigin.von.Sc...
Maria.Stuart.Koenigin.von.Sc...
The.Possession.of.Hannah.Gra...
The.Possession.of.Hannah.Gra...

Neuerscheinungen 2018-19
May.Die.Schneiderin.des.Tode...
May.Die.Schneiderin.des.Tode...
7.goldene.Maenner.7.uomini.d...
Das.Superding.der.7.goldenen...
Pettersson.und.Findus.Findus...
Pettersson.und.Findus.Findus...
Pettersson.und.Findus.Findus...
Der.Sizilianer.1987.German.7...
Rosen.fuer.den.Staatsanwalt....
Rosen.fuer.den.Staatsanwalt....

XXX
DarkX.19.01.31.Skylar.Snow.R...
KarupsOW.19.01.30.Nina.Hartl...
Nympho.19.01.30.Carmen.Calie...
FTVGirls.19.01.30.Gracie.Org...
ATKHairy.19.01.29.Kasey.Warn...
AlexisMonroe.18.07.27.Teenie...
BAMVisions.19.01.27.Victoria...
AlexisMonroe.18.05.12.Foot.F...
BitchConfessions.19.01.30.Pa...
MomPov.BONUS.E90.Connie.XXX....
GirlsOutWest.19.01.30.Alicia...
BangBus.19.01.30.Alexa.Vega....
NewSensations.19.01.30.Lilly...
PlayboyPlus.19.01.28.Gloria....
Submissived.19.01.28.Lola.Ch...
SinfulXXX.19.01.29.Anna.Poli...
AlexisMonroe.18.11.09.Isiah....
PlumperPass.19.01.28.Kendra....
MomPov.BONUS.E100.Maggie.XXX...
TrannySurprise.17.07.19.Caro...

3D
Phantastische.Tierwesen.und....
Phantastische.Tierwesen.und....
Top.Gun.3D.1986.COMPLETE.BLU...
Passengers.2016.3D.HOU.Germa...
Venom.3D.2018.German.DL.1080...
Venom.3D.2018.MULTi.COMPLETE...
Passengers.2016.3D.HSBS.Germ...
Die.Unglaublichen.2.3D.2018....
Die.Reise.zum.Mittelpunkt.de...
Die.Reise.zum.Mittelpunkt.de...
Die.Reise.zum.Mittelpunkt.de...
Kaluoka.Hina.Das.Zauberriff....
Blade.Runner.2049.3D.2017.Ge...
Walhalla.Rising.3D.2009.DUAL...
Sleepwalker.3D.2011.DUAL.COM...

Old_Stuff
Soylent.Green.2022.die.ueber...
Drive.2011.German.DL.DTS.108...
Die.Schoene.und.das.Biest.Sp...
Kung.Fu.Panda.2008.German.DL...
Cars.2006.German.1080p.BluRa...
Die.Bestimmung.Divergent.201...
Disneys.Eine.Weihnachtsgesch...
Shrek.der.Dritte.2007.German...
Shrek.2.Der.tollkuehne.Held....
Men.of.Honor.2000.MULTi.COMP...
Over.the.Top.1987.MULTi.COMP...
Feinde.Hostiles.2017.German....
Total.Recall.EXTENDED.2012.G...
Blade.II.2002.UNCUT.German.A...
Transformers.2007.German.AC3...

Filme
Rewind.-.Die.zweite.Chance.2...
Rewind.-.Die.zweite.Chance.2...
Nobodys.Fool.2018.German.108...
Black.Mountain.Side.Das.Ding...
Bahubali.2.The.Conclusion.20...
Fight.Night.Get.ready.to.Fig...
Snowmageddon.2011.German.DL....
Sommer.in.Orange.German.1080...
Barbecue.2014.GERMAN.DTS.108...
Die.Hoelle.von.Korea.1951.Ge...
Black.Lightning.S02.GERMAN.D...
Black.Lightning.S02.GERMAN.D...
Laurel.und.Hardy.-.Rache.ist...
Poison.Ivy.4.The.Secret.Soci...
Xenius.-.Zeppelin.Luftschiff...
Bates.Motel.1987.GERMAN.DL.7...
Liebe.mit.Biss.1987.German.D...
Liebe.mit.Biss.1987.German.D...
Schwester.Agnes.1975.German....
Flashdance.1983.German.DL.10...
Flashdance.1983.German.720p....
Nicht.mit.mir.Ein.Sexopfer.s...
Pat.Garrett.jagt.Billy.the.K...
Pat.Garrett.jagt.Billy.the.K...

 
 
Sons.of.Anarchy.S05.COMPLETE.German.DL.720p.BluRay.x264-iNTENTiON

Jahr: 2012
Genre: Krimi | Drama | Thriller
Sprache: Deutsch DTS | Englisch AC3
Laufzeit: 1h je Folge
Bitrate: 2100 Kbps
Format: MKV
Größe: 1,5 GB je Folge
Release:

Beschreibung:

Die Serie spielt in Charming, einer fiktiven Kleinstadt nahe Oakland in Nordkalifornien. Der Protagonist der Serie ist Jackson „Jax“ Teller, zu Beginn noch der Vizepräsident des Motorrad-Clubs (MC), der beginnt, die Methoden und Sichtweisen des Clubs und dessen Präsidenten Clay Morrow, der gleichzeitig Jax’ Stiefvater ist, in Frage zu stellen. Zur Tarnung betreibt der Motorrad-Club in Charming eine große Werkstatt für Autos und Motorräder, die als Basis dient. Der Club ist in den illegalen Waffenhandel in den gesamten USA sowie in Europa (u. a. mit der Real Irish Republican Army) verstrickt und versucht dies vor allem vor dem ATF geheim zu halten. Neben den Konflikten der einzelnen Personen untereinander spielt auch das Thema Krieg unter rivalisierenden Banden eine große Rolle in der Serie.

 

 

enthaltene Folgen:

Sons.of.Anarchy.S05E01.Auge.um.Auge.German.Dubbed.720p.BluRay.x264-TCPA 

Sons.of.Anarchy.S05E02.Ein.neuer.Verbuendeter.EXTENDED.German.Dubbed.720p.BluRay.x264-TCPA 

Sons.of.Anarchy.S05E03.Die.ganze.Wahrheit.German.Dubbed.720p.BluRay.x264-TCPA

Sons.of.Anarchy.S05E04.Stolen.Huffy.EXTENDED.German.Dubbed.720p.BluRay.x264-TCPA

Sons.of.Anarchy.S05E05.Erpressung.German.Dubbed.720p.BluRay.x264-TCPA

Sons.of.Anarchy.S05E06.Toedliche.Eifersucht.EXTENDED.German.Dubbed.720p.BluRay.x264-TCPA 

Sons.of.Anarchy.S05E07.In.die.Falle.gelockt.German.Dubbed.720p.BluRay.x264-TCPA

Sons.of.Anarchy.S05E08.Geiselnahme.German.Dubbed.720p.BluRay.x264-TCPA 

Sons.of.Anarchy.S05E09.Parfuem.German.Dubbed.720p.BluRay.x264-TCPA

Sons.of.Anarchy.S05E10.Versprechen.German.Dubbed.720p.BluRay.x264-TCPA NEU

Sons.of.Anarchy.S05E11.Ausstieg.German.Dubbed.720p.BluRay.x264-TCPA NEU

Sons.of.Anarchy.S05E12.Ende.einer.Aera.German.Dubbed.720p.BluRay.x264-TCPA NEU

Sons.of.Anarchy.S05E13.Verrat.EXTENDED.German.Dubbed.720p.BluRay.REPACK.x264-TCPA NEU



General
Complete name                            :sons.of.anarchy.s05e01.german.dl.720p.bluray.x264-intention.mkv
Format                                   : Matroska
Format version                           : Version 2
File size                                : 1.53 GiB
Duration                                 : 59mn 52s
Overall bit rate                         : 3 661 Kbps
Writing application                      : mkvmerge v6.6.0 ('The Edge Of The In Between') built on Dec 1 2013 17:55:00
Writing library                          : libebml v1.3.0 + libmatroska v1.4.1

Video
ID                                       : 1
Format                                   : AVC
Format/Info                              : Advanced Video Codec
Format profile                           : High@L4.1
Format settings, CABAC                   : Yes
Format settings, ReFrames                : 5 frames
Codec ID                                 : V_MPEG4/ISO/AVC
Duration                                 : 59mn 52s
Bit rate                                 : 2 180 Kbps
Width                                    : 1 280 pixels
Height                                   : 720 pixels
Display aspect ratio                     : 16:9
Frame rate mode                          : Constant
Frame rate                               : 23.976 fps
Color space                              : YUV
Chroma subsampling                       : 4:2:0
Bit depth                                : 8 bits
Scan type                                : Progressive
Bits/(Pixel*Frame)                       : 0.099
Stream size                              : 934 MiB (60%)
Writing library                          : x264 core 144 r2525 40bb568
Encoding settings                        : cabac=1 / ref=5 / deblock=1:-3:-3 / analyse=0x3:0x133 / me=umh / subme=8 / psy=1 / psy_rd=1.00:0.15 / mixed_ref=1 / me_range=16 / chroma_me=1 / trellis=1 / 8x8dct=1 / cqm=0 / deadzone=21,11 / fast_pskip=0 / chroma_qp_offset=-3 / threads=12 / lookahead_threads=2 / sliced_threads=0 / nr=0 / decimate=1 / interlaced=0 / bluray_compat=0 / constrained_intra=0 / bframes=3 / b_pyramid=2 / b_adapt=2 / b_bias=0 / direct=3 / weightb=1 / open_gop=0 / weightp=2 / keyint=230 / keyint_min=23 / scenecut=40 / intra_refresh=0 / rc_lookahead=50 / rc=crf / mbtree=1 / crf=20.0 / qcomp=0.60 / qpmin=0 / qpmax=69 / qpstep=4 / ip_ratio=1.40 / aq=1:1.00
Language                                 : English
Default                                  : Yes
Forced                                   : No

Audio #1
ID                                       : 2
Format                                   : DTS
Format/Info                              : Digital Theater Systems
Mode                                     : 16
Format settings, Endianness              : Big
Codec ID                                 : A_DTS
Duration                                 : 59mn 52s
Bit rate mode                            : Constant
Bit rate                                 : 768 Kbps
Channel(s)                               : 6 channels
Channel positions                        : Front: L C R, Side: L R, LFE
Sampling rate                            : 48.0 KHz
Bit depth                                : 24 bits
Compression mode                         : Lossy
Stream size                              : 329 MiB (21%)
Language                                 : German
Default                                  : Yes
Forced                                   : No

Audio #2
ID                                       : 3
Format                                   : AC-3
Format/Info                              : Audio Coding 3
Mode extension                           : CM (complete main)
Format settings, Endianness              : Big
Codec ID                                 : A_AC3
Duration                                 : 59mn 52s
Bit rate mode                            : Constant
Bit rate                                 : 640 Kbps
Channel(s)                               : 6 channels
Channel positions                        : Front: L C R, Side: L R, LFE
Sampling rate                            : 48.0 KHz
Bit depth                                : 16 bits
Compression mode                         : Lossy
Stream size                              : 274 MiB (17%)
Language                                 : English
Default                                  : Yes
Forced                                   : No

Text
ID                                       : 4
Format                                   : UTF-8
Codec ID                                 : S_TEXT/UTF8
Codec ID/Info                            : UTF-8 Plain Text
Title                                    : Forced
Language                                 : German
Default                                  : Yes
Forced                                   : No

Menu
00:00:00.000                             : en:00:00:00.000
00:04:19.217                             : en:00:04:19.217
00:07:56.142                             : en:00:07:56.142
00:17:25.628                             : en:00:17:25.628
00:23:36.707                             : en:00:23:36.707
00:28:59.363                             : en:00:28:59.363
00:31:41.108                             : en:00:31:41.108
00:40:01.149                             : en:00:40:01.149
00:43:22.099                             : en:00:43:22.099
00:46:45.344                             : en:00:46:45.344
00:53:57.276                             : en:00:53:57.276
00:56:27.134                             : en:00:56:27.134



Download:
Share-Online.biz Share-Online.bizShare-Online.bizShare-Online.biz
 

Kommentare