DNS SERVER ÄNDERN, um der staatlichen Zensur zu entgehen. Sollten wir von eurem Provider gesperrt werden, nutzt den TOR BROWSER oder ändert euren DNS SERVER.

Filmwünsche können bei uns im Forum abgegeben werden

Wir Speichern Nicht




 
 
 
Top Releases
Der.wilde.Pazifik.Die.Schoen...
Venom.2018.MULTi.COMPLETE.UH...
OPERATION.Overlord.2018.COMP...
Heavy.Trip.2018.German.1080p...
Utoya.22.Juli.2018.MULTi.COM...
Heavy.Trip.2018.MULTi.COMPLE...
Isle.of.Dogs.2018.MULTi.COMP...
Sauerkrautkoma.2018.GERMAN.C...
OPERATION.OVERLORD.2018.MULT...
Venom.2018.MULTI.COMPLETE.BL...

Cinedubs
Maria.Stuart.Koenigin.von.Sc...
Maria.Stuart.Koenigin.von.Sc...
The.Possession.of.Hannah.Gra...
The.Possession.of.Hannah.Gra...
Here.and.Now.2018.German.DL....
Here.and.Now.2018.German.DL....
Belleville.Cop.2018.German.A...
Belleville.Cop.2018.German.A...
Can.You.Ever.Forgive.Me.2019...
Can.You.Ever.Forgive.Me.2019...

Neuerscheinungen 2018-19
Der.Sizilianer.1987.German.7...
Rosen.fuer.den.Staatsanwalt....
Rosen.fuer.den.Staatsanwalt....
Der.Nussknacker.und.die.vier...
Der.Sizilianer.1987.German.D...
Alien.Predator.2018.German.D...
Alien.Predator.2018.German.7...
Alien.Predator.2018.DUAL.COM...
Extremities.1986.German.DL.1...
Extremities.1986.German.720p...

XXX
GirlsOutWest.19.01.30.Alicia...
BangBus.19.01.30.Alexa.Vega....
NewSensations.19.01.30.Lilly...
PlayboyPlus.19.01.28.Gloria....
Submissived.19.01.28.Lola.Ch...
SinfulXXX.19.01.29.Anna.Poli...
AlexisMonroe.18.11.09.Isiah....
PlumperPass.19.01.28.Kendra....
MomPov.BONUS.E100.Maggie.XXX...
TrannySurprise.17.07.19.Caro...
AlexisMonroe.18.10.22.Birthd...
ATKGirlfriends.19.01.31.Soph...
MomPov.BONUS.E99.Angie.XXX.7...
Nubiles.19.01.31.Roxy.Lips.B...
RoccoSiffredi.19.01.31.Lee.A...
Bryci.18.05.03.Neon.POV.Blow...
DorcelClub.19.01.28.Cassie.D...
ExxxtraSmall.19.01.31.Kenzie...
WeFuckBlackGirls.19.01.28.Be...
Private.Specials.249.Ass.Lic...

3D
Top.Gun.3D.1986.COMPLETE.BLU...
Passengers.2016.3D.HOU.Germa...
Venom.3D.2018.German.DL.1080...
Venom.3D.2018.MULTi.COMPLETE...
Passengers.2016.3D.HSBS.Germ...
Die.Unglaublichen.2.3D.2018....
Die.Reise.zum.Mittelpunkt.de...
Die.Reise.zum.Mittelpunkt.de...
Die.Reise.zum.Mittelpunkt.de...
Kaluoka.Hina.Das.Zauberriff....
Blade.Runner.2049.3D.2017.Ge...
Walhalla.Rising.3D.2009.DUAL...
Sleepwalker.3D.2011.DUAL.COM...
Bis.an.die.Grenzen.des.Unive...
Best.of.3D.vol.13.-.15.GERMA...

Old_Stuff
Cars.2006.German.1080p.BluRa...
Die.Bestimmung.Divergent.201...
Disneys.Eine.Weihnachtsgesch...
Shrek.der.Dritte.2007.German...
Shrek.2.Der.tollkuehne.Held....
Men.of.Honor.2000.MULTi.COMP...
Over.the.Top.1987.MULTi.COMP...
Feinde.Hostiles.2017.German....
Total.Recall.EXTENDED.2012.G...
Blade.II.2002.UNCUT.German.A...
Transformers.2007.German.AC3...
Ip.Man.2.2010.German.DTS.108...
Todfreunde.aka.Bad.Influence...
Animatrix.2003.German.DL.720...
Animatrix.2003.German.DL.108...

Filme
Kraftidioten.Einer.nach.dem....
Kraftidioten.Einer.nach.dem....
Chinatown.1974.German.AC3.DL...
Xenius.-.Verbrechensbekaempf...
Poison.Ivy.2.Duplicate.1996....
Unleashed.Entfesselt.2005.Ge...
Familiensache.1998.German.AC...
Aethiopiens.phallische.Megal...
Testosteron.-.Der.Maennersto...
Psycho.IV.The.Beginning.1990...
Psycho.IV.The.Beginning.1990...
Poison.Ivy.Die.toedliche.Uma...
Camera.Obscura.2017.German.1...
Camera.Obscura.2017.German.7...
Im.Sturm.der.Liebe.-.2006.GE...
The.Ramen.Girl.2008.DUAL.COM...
Naach.2004.German.1080p.HDTV...
Naach.2004.German.720p.HDTV....
London.Dreams.2009.German.10...
London.Dreams.2009.German.72...
Ganz.oben.-.Die.diskrete.Wel...
Alien.Predator.2018.German.D...
Der.sechste.Kontinent.1976.G...
Feuerkaefer.aka.Bug.1975.Unc...

 
 
Berlin.Station.S03.GERMAN.DL.1080p.WEB.X264-FENDT

Jahr: 2018
Genre: Thriller
Sprache: Deutsch AC3 | Englisch AC3
Laufzeit: 54min je Folge
Bitrate: 6100 Kbps
Format: MKV
Größe: 2,6 GB je Folge
Release:

Beschreibung:

Valerie Edwards (Michelle Forbes) schickt Daniel Miller (Richard Armitage) und Robert Kirsch (Leland Orser) auf eine dringende Mission, auf der sie den abtrünnigen CIA Officer Rafael Torres (Ismael Cruz Cordova) treffen und Zeichen einer verdeckten Invasion enthüllen.


enthaltene Folgen:

Berlin.Station.S03E01.GERMAN.DL.1080p.WEB.X264-FENDT

Berlin.Station.S03E02.GERMAN.DL.1080p.WEB.X264-FENDT

Berlin.Station.S03E03.GERMAN.DL.1080p.WEB.X264-FENDT

Berlin.Station.S03E04.GERMAN.DL.1080p.WEB.X264-FENDT

Berlin.Station.S03E05.GERMAN.DL.1080p.WEB.X264-FENDT

Berlin.Station.S03E06.GERMAN.DL.1080p.WEB.X264-FENDT

noch nicht released

Berlin.Station.S03E08.GERMAN.DL.1080p.WEB.X264-FENDT

Berlin.Station.S03E09.GERMAN.DL.1080p.WEB.X264-FENDT NEU



General
Complete name                            : Berlin.Station.S03E01.GERMAN.DL.1080p.WEB.X264-FENDT\Berlin.Station.S03E01.GERMAN.DL.1080p.WEB.X264-FENDT.mkv
Format                                   : Matroska
Format version                           : Version 4 / Version 2
File size                                : 2.64 GiB
Duration                                 : 54mn 35s
Overall bit rate mode                    : Variable
Overall bit rate                         : 6 932 Kbps
Writing application                      : mkvmerge v28.2.0 ('The Awakening') 64-bit
Writing library                          : libebml v1.3.6 + libmatroska v1.4.9

Video
ID                                       : 1
Format                                   : AVC
Format/Info                              : Advanced Video Codec
Format profile                           : Main@L4.0
Format settings, CABAC                   : Yes
Format settings, ReFrames                : 3 frames
Codec ID                                 : V_MPEG4/ISO/AVC
Duration                                 : 54mn 35s
Bit rate mode                            : Variable
Bit rate                                 : 6 190 Kbps
Maximum bit rate                         : 9 285 Kbps
Width                                    : 1 920 pixels
Height                                   : 1 080 pixels
Display aspect ratio                     : 16:9
Frame rate mode                          : Constant
Frame rate                               : 23.976 fps
Color space                              : YUV
Chroma subsampling                       : 4:2:0
Bit depth                                : 8 bits
Scan type                                : Progressive
Bits/(Pixel*Frame)                       : 0.125
Stream size                              : 2.30 GiB (87%)
Writing library                          : x264 core 148 r2715 7e75228
Encoding settings                        : cabac=1 / ref=3 / deblock=1:0:0 / analyse=0x1:0x111 / me=umh / subme=10 / psy=1 / psy_rd=1.00:0.00 / mixed_ref=1 / me_range=24 / chroma_me=1 / trellis=2 / 8x8dct=0 / cqm=0 / deadzone=21,11 / fast_pskip=1 / chroma_qp_offset=-2 / threads=8 / lookahead_threads=1 / sliced_threads=0 / nr=0 / decimate=1 / interlaced=0 / bluray_compat=0 / stitchable=1 / constrained_intra=0 / bframes=2 / b_pyramid=0 / b_adapt=2 / b_bias=0 / direct=3 / weightb=1 / open_gop=0 / weightp=2 / keyint=48 / keyint_min=25 / scenecut=0 / intra_refresh=0 / rc_lookahead=48 / rc=2pass / mbtree=1 / bitrate=6190 / ratetol=1.0 / qcomp=0.50 / qpmin=6 / qpmax=51 / qpstep=4 / cplxblur=20.0 / qblur=0.5 / vbv_maxrate=9285 / vbv_bufsize=12380 / nal_hrd=vbr / filler=0 / ip_ratio=1.40 / aq=1:1.00
Language                                 : German
Default                                  : Yes
Forced                                   : No

Audio #1
ID                                       : 2
Format                                   : AC-3
Format/Info                              : Audio Coding 3
Mode extension                           : CM (complete main)
Format settings, Endianness              : Big
Codec ID                                 : A_AC3
Duration                                 : 54mn 35s
Bit rate mode                            : Constant
Bit rate                                 : 384 Kbps
Channel(s)                               : 6 channels
Channel positions                        : Front: L C R, Side: L R, LFE
Sampling rate                            : 48.0 KHz
Bit depth                                : 16 bits
Compression mode                         : Lossy
Stream size                              : 150 MiB (6%)
Language                                 : German
Default                                  : Yes
Forced                                   : No

Audio #2
ID                                       : 3
Format                                   : AC-3
Format/Info                              : Audio Coding 3
Mode extension                           : CM (complete main)
Format settings, Endianness              : Big
Codec ID                                 : A_AC3
Duration                                 : 54mn 35s
Bit rate mode                            : Constant
Bit rate                                 : 384 Kbps
Channel(s)                               : 6 channels
Channel positions                        : Front: L C R, Side: L R, LFE
Sampling rate                            : 48.0 KHz
Bit depth                                : 16 bits
Compression mode                         : Lossy
Stream size                              : 150 MiB (6%)
Language                                 : English
Default                                  : No
Forced                                   : No

Text #1
ID                                       : 4
Format                                   : UTF-8
Codec ID                                 : S_TEXT/UTF8
Codec ID/Info                            : UTF-8 Plain Text
Title                                    : German
Language                                 : German
Default                                  : No
Forced                                   : No

Text #2
ID                                       : 5
Format                                   : UTF-8
Codec ID                                 : S_TEXT/UTF8
Codec ID/Info                            : UTF-8 Plain Text
Title                                    : German (Forced)
Language                                 : German
Default                                  : Yes
Forced                                   : Yes

Text #3
ID                                       : 6
Format                                   : UTF-8
Codec ID                                 : S_TEXT/UTF8
Codec ID/Info                            : UTF-8 Plain Text
Title                                    : English
Language                                 : English
Default                                  : No
Forced                                   : No



Download:
Share-Online.biz Share-Online.bizShare-Online.bizShare-Online.biz | Rapidgator.net Rapidgator.netRapidgator.netRapidgator.net
 

Kommentare